<?xml version="1.0" standalone="no"?>
<!DOCTYPE svg PUBLIC "-//W3C//DTD SVG 1.1//EN" "http://www.w3.org/Graphics/SVG/1.1/DTD/svg11.dtd" >
<svg xmlns="http://www.w3.org/2000/svg">
<metadata>Generated by IcoMoon</metadata>
<defs>
<font id="icomoon" horiz-adv-x="1024">
<font-face units-per-em="1024" ascent="960" descent="-64" />
<missing-glyph horiz-adv-x="1024" />
<glyph unicode="&#x20;" d="" horiz-adv-x="512" />
<glyph unicode="&#xe600;" d="M585.574 741.581c-21.402-20.89-230.502-240.435-230.502-240.435-11.418-11.162-17.101-25.754-17.101-40.346s5.683-29.184 17.101-40.346c0 0 209.101-219.546 230.502-240.384 21.402-20.89 59.904-22.323 82.739 0 22.784 22.272 24.576 53.35-0.051 80.64l-191.846 200.090 191.846 200.090c24.627 27.341 22.835 58.419 0.051 80.691-22.886 22.272-61.389 20.89-82.739 0z" />
<glyph unicode="&#xe601;" d="M512 890.88c-237.568 0-430.080-192.614-430.080-430.080 0-237.568 192.563-430.080 430.080-430.080 237.517 0 430.080 192.563 430.080 430.080 0 237.517-192.563 430.080-430.080 430.080zM564.326 408.474v-206.182h-104.653v206.182h-206.234v104.653h206.182v206.234h104.704v-206.182h206.182v-104.704h-206.182z" />
<glyph unicode="&#xe602;" d="M891.802 235.571c13.875-13.722 36.301-13.722 50.125 0 13.875 13.722 13.875 35.891 0 49.613l-404.89 400.896c-13.824 13.722-36.25 13.722-50.074 0l-404.89-400.896c-13.824-13.722-13.875-35.891 0-49.613s36.25-13.722 50.125 0l379.802 365.619 379.802-365.619z" />
<glyph unicode="&#xe603;" d="M792.73 387.226c-20.838 21.402-240.384 230.502-240.384 230.502-11.162 11.418-25.754 17.152-40.346 17.152-14.643 0-29.235-5.734-40.346-17.152 0 0-219.546-209.101-240.435-230.502-20.838-21.402-22.272-59.904 0-82.739 22.323-22.784 53.402-24.627 80.691 0l200.090 191.846 200.038-191.846c27.341-24.627 58.47-22.784 80.691 0 22.323 22.886 20.941 61.389 0 82.739z" />
<glyph unicode="&#xe604;" d="M438.426 741.581c21.402-20.89 230.502-240.435 230.502-240.435 11.469-11.162 17.152-25.754 17.152-40.346s-5.683-29.184-17.152-40.346c0 0-209.101-219.546-230.502-240.384-21.402-20.89-59.853-22.323-82.739 0-22.835 22.272-24.627 53.35 0 80.64l191.898 200.090-191.846 200.090c-24.627 27.341-22.835 58.419 0 80.691s61.338 20.89 82.688 0z" />
<glyph unicode="&#xe605;" d="M286.704 80.998c-13.722-13.875-13.722-36.25 0-50.125s35.891-13.875 49.613 0l400.896 404.838c13.722 13.875 13.722 36.301 0 50.125l-400.896 404.89c-13.722 13.875-35.891 13.875-49.613 0s-13.722-36.25 0-50.125l365.568-379.802-365.568-379.802z" />
<glyph unicode="&#xe606;" d="M876.8 605.542l-104.755 288.563c-7.731 21.299-30.464 32.563-50.637 25.19l-696.166-254.106c-20.224-7.322-30.413-30.566-22.682-51.866l110.438-304.23v163.072c0 73.574 58.778 133.376 131.123 133.376h183.962l219.392 154.010 126.976-154.010h102.349zM984.986 513.178h-740.864c-21.504 0-39.014-18.381-39.014-41.062v-482.355c0-22.63 17.459-41.062 39.014-41.062h740.864c21.555 0 39.014 18.381 39.014 41.062v482.406c0 22.63-17.459 41.011-39.014 41.011zM928.461 51.354h-614.144v88.013l94.464 219.904 141.773-175.974 132.966 136.294 170.957 61.696 73.984-164.966v-164.966z" />
<glyph unicode="&#xe607;" d="M792.73 534.374c-20.838-21.402-240.384-230.554-240.384-230.554-11.162-11.418-25.754-17.101-40.346-17.101-14.643 0-29.235 5.683-40.346 17.101 0 0-219.546 209.152-240.435 230.554-20.838 21.402-22.272 59.853 0 82.739 22.323 22.835 53.402 24.627 80.691 0l200.090-191.898 200.038 191.846c27.341 24.627 58.47 22.835 80.691 0 22.323-22.835 20.941-61.338 0-82.688z" />
<glyph unicode="&#xe608;" d="M737.229 80.998c13.722-13.875 13.722-36.25 0-50.125s-35.891-13.875-49.613 0l-400.896 404.838c-13.722 13.875-13.722 36.301 0 50.125l400.896 404.89c13.722 13.875 35.891 13.875 49.613 0s13.722-36.25 0-50.125l-365.568-379.802 365.568-379.802z" />
<glyph unicode="&#xe609;" d="M512 960c-282.77 0-512-229.23-512-512s229.23-512 512-512 512 229.23 512 512-229.23 512-512 512zM512 32c-229.75 0-416 186.25-416 416s186.25 416 416 416 416-186.25 416-416-186.25-416-416-416zM384 672l384-224-384-224z" />
<glyph unicode="&#xe60a;" d="M132.198 686.029c-13.875 13.722-36.301 13.722-50.125 0-13.824-13.67-13.824-35.891 0-49.613l404.89-400.896c13.875-13.722 36.25-13.722 50.125 0l404.89 400.896c13.824 13.722 13.875 35.891 0 49.613s-36.352 13.722-50.125 0.051l-379.853-365.619-379.802 365.568z" />
<glyph unicode="&#xe60b;" d="M670.072 693.644h-312.144c-21.342 0-38.642-17.3-38.642-38.642 0 0 0.012-510.532 0-530.382-0.050-82.156 121.374-88.572 194.45-88.62 73.072-0.046 194.98 6.26 194.98 88.62 0 19.906 0 530.382 0 530.382-0.002 21.342-17.302 38.642-38.644 38.642zM514 86.756c-21.332 0-38.628 17.296-38.628 38.632 0 21.332 17.296 38.624 38.628 38.624 21.334 0 38.628-17.292 38.628-38.624 0-21.336-17.294-38.632-38.628-38.632zM651.862 205.81h-275.724v395.964h275.722v-395.964zM770.074 477.11c19.066-19.040 30.874-45.368 30.882-74.446 0.012-29.078-11.758-55.41-30.8-74.48l31.348-31.348c27.066 27.102 43.814 64.542 43.796 105.864-0.020 41.324-16.778 78.71-43.868 105.77l-31.358-31.36zM824.954 531.988c33.116-33.074 53.578-78.752 53.598-129.262 0.024-50.504-20.458-96.274-53.54-129.398l32.132-32.132c41.3 41.36 66.882 98.516 66.856 161.572-0.026 63.054-25.566 120.072-66.906 161.362l-32.14-32.142zM222.566 508.468c-27.090-27.058-43.848-64.446-43.868-105.77-0.018-41.322 16.73-78.762 43.796-105.864l31.348 31.348c-19.042 19.070-30.812 45.402-30.8 74.48 0.010 29.078 11.816 55.406 30.882 74.446l-31.358 31.36zM166.906 564.128c-41.34-41.288-66.88-98.306-66.906-161.36-0.028-63.056 25.554-120.212 66.856-161.572l32.132 32.132c-33.082 33.124-53.562 78.894-53.54 129.398 0.020 50.51 20.482 96.188 53.598 129.262l-32.14 32.14z" />
<glyph unicode="&#xe60c;" d="M814.896 239.052c-118.072 27.234-227.978 51.082-174.75 151.434 13.746 25.914 25.42 50.78 35.258 74.634-29.726-17.012-62.934-30.164-80.98-34.648l-7.704 36.53c39.454 11.234 81.994 32.186 111.66 62.984 63.022 215.4-43.524 329.312-186.378 329.312-174.462 0-290.606-169.624-128.144-468.812 54.824-100.964-59.216-124.786-174.75-151.434-118.024-27.218-108.946-89.446-108.946-202.352h823.676c0 112.908 9.078 175.134-108.942 202.352zM512.256 402.77c-15.148-3.118-29.95 6.634-33.066 21.786-3.118 15.146 6.636 29.952 21.786 33.066l60.188 13.342 11.286-54.852-60.194-13.342z" />
<glyph unicode="&#xe60d;" d="M924 146.208l-93.846 93.848c13.72 21.628 21.682 47.258 21.682 74.71 0 77.114-62.736 139.846-139.848 139.846-77.108 0-139.844-62.732-139.844-139.846 0-77.112 62.736-139.846 139.844-139.846 26.096 0 50.536 7.19 71.46 19.682l94.47-94.47 46.082 46.076zM624.278 314.768c0 48.366 39.346 87.712 87.71 87.712 48.368 0 87.714-39.348 87.714-87.712s-39.348-87.712-87.714-87.712c-48.364-0.002-87.71 39.346-87.71 87.712zM512.62 305.064l-41.978 27.15v380.656l144.274-72.988v-150.754c8.472 4.736 17.322 8.874 26.496 12.352v139.62l132.204 66.912v-203.378c19.080-6.208 36.91-15.21 52.996-26.536v317.77l-199.624-102.462-168.978 85.96-165.448-85.96-192.562 102.462v-518.988l192.558-109.924 165.448 109.908 73.836-48.026c-11.148 23.286-17.916 49.050-19.222 76.226zM278.132 236.008l-125.134 71.784v400.218l125.134-66.912v-405.090zM445.374 332.214l-140.74-93.314v400.98l140.74 72.988v-380.654z" />
<glyph unicode="&#xe60e;" d="M159.584 525.5v-470h705.5v470h-705.5zM229.584 196.5v259h565.5v-259h-565.5zM264.626 369.232l54.75 54.75c14.074 14.064 35.228-7.198 21.214-21.214l-54.75-54.75c-14.068-14.060-35.228 7.194-21.214 21.214zM268.502 297.108l123 123c14.074 14.064 35.228-7.198 21.214-21.214l-123-123c-14.070-14.062-35.23 7.194-21.214 21.214zM441.24 840.5l-35.596-170.664h-0.162v-34.68c0-36.628-29.694-66.322-66.322-66.322s-66.32 29.694-66.32 66.322v34.68l101.682 170.664h66.718zM336.464 840.5l-103.82-170.664v-34.68c0-36.628-29.694-66.322-66.322-66.322s-66.322 29.694-66.322 66.322v34.68l167.332 170.664h69.132zM924 669.836v-34.68c0-36.628-29.694-66.322-66.322-66.322s-66.322 29.694-66.322 66.322v34.68l-103.82 170.664h69.132l167.332-170.664zM578.16 669.836h0.162v-34.68c0-36.628-29.694-66.322-66.322-66.322s-66.322 29.694-66.322 66.322v34.68h0.162l33.458 170.664h65.406l33.456-170.664zM649.478 840.5l101.682-170.664v-34.68c0-36.628-29.692-66.322-66.32-66.322s-66.322 29.694-66.322 66.322v34.68h-0.162l-35.596 170.664h66.718z" />
<glyph unicode="&#xe60f;" d="M752.284 597.774l20.636-14.788-335.192-181.782-20.63 14.788 335.186 181.782zM338.726 472.154l20.62-14.782 90.608 49.14-20.626 14.78-90.602-49.138zM377.908 444.072l20.626-14.778 90.604 49.136-20.624 14.776-90.606-49.134zM372.908 565.458l14.524 7.874-45.524 32.618-13.11-7.112 27.9-19.994-47.070 9.6-16.038-8.702 45.524-32.614 13.11 7.112-31.13 22.308 51.814-11.090zM506.964 652.438l-1.042-0.196 6.412-8.274 0.624 0.104c4.416 0.714 12.308 3.182 19.178 6.904 17.4 9.444 15.86 18.314 9.264 23.046-6.384 4.574-15.572 5.084-28.91 1.626-9.84-2.5-13.514-3.040-15.896-1.332-2.29 1.642-0.794 4.312 3.824 6.82 4.062 2.202 8.65 3.824 13.642 4.802l0.984 0.194-5.922 8.3-0.696-0.144c-5.824-1.252-11.556-3.392-17.044-6.368-13.242-7.184-16.548-16.012-8.222-21.976 6.132-4.398 16.122-4.752 29.642-1.062 8.692 2.316 12.442 2.504 14.856 0.776 2.742-1.96 1.26-4.738-4.046-7.62-4.488-2.434-10.716-4.526-16.648-5.6zM445.262 642.598l37.248-17.706 14.936 8.104-30.516 40.75-14.442-7.832 23.504-26.218-38.088 18.312-14.718-7.986 23.472-26.972-38.728 18.702-15.12-8.198 59.304-25.14 15.116 8.194-21.968 25.99zM300.128 499.812l20.636-14.79 335.186 181.784-20.63 14.786-335.192-181.78zM557.208 590.646l-103.1-55.914 59.812-42.864 103.102 55.916-59.814 42.862zM402.158 593.002l-9.532 6.828 20.882 11.328-9.222 6.61-20.878-11.33-8.204 5.88 22.158 12.012-9.292 6.65-36.356-19.714 45.518-32.618 37.532 20.352-9.288 6.654-23.318-12.652zM434.398 304.738l489.602 265.526-334.132 239.444-489.608-265.52 334.138-239.45zM836.050 583.586l-410.642-222.706-254.722 182.54 410.642 222.704 254.722-182.538M694.534 639.156l-20.622 14.782-90.596-49.134 20.624-14.778 90.594 49.13zM733.722 611.072l-20.624 14.784-90.588-49.13 20.618-14.782 90.594 49.128zM874.982 495.066l-449.836-244.318-285.572 204.768-39.574-21.466 334.138-239.448 489.602 265.524-48.758 34.94zM875.12 386.758l-449.832-244.32-285.572 204.77-39.576-21.466 334.132-239.452 489.606 265.524-48.758 34.944z" />
<glyph unicode="&#xe610;" d="M814.896 239.052c-118.072 27.234-227.978 51.082-174.75 151.434 162.020 305.458 42.946 468.812-128.144 468.812-174.462 0-290.606-169.624-128.144-468.812 54.824-100.964-59.216-124.786-174.75-151.434-118.024-27.218-108.946-89.446-108.946-202.352h823.676c0 112.908 9.078 175.134-108.942 202.352z" />
<glyph unicode="&#xe611;" d="M807.668 445.866h-477.334v-40h477.334v40zM452 371.030h-121.666v-40h121.666v40zM452 295.030h-121.666v-40h121.666v40zM807.668 371.030h-121.666v-40h121.666v40zM807.668 295.030h-121.666v-40h121.666v40zM646.334 371.030h-156.666v-116h156.666v116zM863 621.198v-421.282h-592v421.282h592M923 681.198h-712v-575.282h712v575.282zM576.88 486.202l-20.95 88.266h22.96l10.934-61.16 12.246 61.16h22.378l10.84-60.028 11.316 60.028h21.95l-22.786-88.266h-22.714l-10.84 58.382-12.368-58.382h-22.966zM550.514 504.198h-35.454v18.48h31.742v17.872h-31.742v15.918h33.66v18h-55.242v-88.266h57.036v17.996zM698.63 502.92c-6.824 0-14.738 1.968-21.172 5.266l-1.124 0.574-4.458-18.098 0.672-0.372c4.684-2.586 14.48-5.372 24.93-5.372 26.434 0 35.812 14.95 35.812 27.75 0 12.376-7.324 20.848-23.042 26.66-11.52 4.372-15.352 6.606-15.352 11.226 0 4.446 4.532 7.316 11.542 7.316 6.176 0 12.102-1.344 17.614-3.996l1.078-0.52 4.898 17.722-0.782 0.356c-6.546 2.946-14.094 4.438-22.426 4.438-20.122 0-33.636-10.844-33.636-26.98 0-11.902 8.192-20.79 24.34-26.414 10.316-3.692 13.8-6.524 13.8-11.214 0.002-5.304-4.626-8.342-12.694-8.342zM425.076 546.556l31.434-60.356h22.066v88.266h-19.918v-54.106l-29.132 54.106h-24.368v-88.266h19.918v60.356zM863 730.084h-702v-558.168h-60v618.168h762v-60z" />
<glyph unicode="&#xe612;" d="M100 557.396v-406h103.912l79.35 157.668h460.696l77.772-157.668h102.27v406h-824zM844.668 455.862c-13.364 0-24.2 10.836-24.2 24.202s10.836 24.2 24.2 24.2 24.202-10.834 24.202-24.2-10.838-24.202-24.202-24.202zM693.47 233.064l77.698-165.57h-516.666l79.314 165.57h359.654M414.412 626.18c24.982 25.084 59.536 40.63 97.73 40.702 38.196 0.078 72.808-15.336 97.888-40.316l41.102 41.262c-35.638 35.5-84.822 57.408-139.102 57.304-54.28-0.11-103.38-22.208-138.882-57.85l41.264-41.102zM342.2 698.11c43.392 43.562 103.4 70.568 169.742 70.698 66.34 0.128 126.458-26.642 170.016-70.032l42.134 42.292c-54.39 54.168-129.442 87.6-212.268 87.438-82.824-0.168-157.744-33.882-211.916-88.266l42.292-42.13z" />
<glyph unicode="&#xe613;" d="M670.072 693.644h-312.144c-21.342 0-38.642-17.3-38.642-38.642 0 0 0.012-510.532 0-530.382-0.050-82.156 121.374-88.572 194.45-88.62 73.072-0.046 194.98 6.26 194.98 88.62 0 19.906 0 530.382 0 530.382-0.002 21.342-17.302 38.642-38.644 38.642zM514 86.756c-21.332 0-38.628 17.296-38.628 38.632 0 21.332 17.296 38.624 38.628 38.624 21.334 0 38.628-17.292 38.628-38.624 0-21.336-17.294-38.632-38.628-38.632zM651.862 205.81h-275.724v395.964h275.722v-395.964zM770.074 477.11c19.066-19.040 30.874-45.368 30.882-74.446 0.012-29.078-11.758-55.41-30.8-74.48l31.348-31.348c27.066 27.102 43.814 64.542 43.796 105.864-0.020 41.324-16.778 78.71-43.868 105.77l-31.358-31.36zM824.954 531.988c33.116-33.074 53.578-78.752 53.598-129.262 0.024-50.504-20.458-96.274-53.54-129.398l32.132-32.132c41.3 41.36 66.882 98.516 66.856 161.572-0.026 63.054-25.566 120.072-66.906 161.362l-32.14-32.142zM222.566 508.468c-27.090-27.058-43.848-64.446-43.868-105.77-0.018-41.322 16.73-78.762 43.796-105.864l31.348 31.348c-19.042 19.070-30.812 45.402-30.8 74.48 0.010 29.078 11.816 55.406 30.882 74.446l-31.358 31.36zM166.906 564.128c-41.34-41.288-66.88-98.306-66.906-161.36-0.028-63.056 25.554-120.212 66.856-161.572l32.132 32.132c-33.082 33.124-53.562 78.894-53.54 129.398 0.020 50.51 20.482 96.188 53.598 129.262l-32.14 32.14z" />
<glyph unicode="&#xe614;" d="M817.538 625.828l-460.746-66.298v-523.566l460.746 70.298v519.566zM583.132 852.694c-80.6-11.326-146.098-91.046-146.26-178.058l-0.1-54.434 53.412 7.506 0.102 54.434c0.102 55.092 41.71 105.748 92.738 112.92 51.042 7.174 92.484-31.81 92.382-86.902l-0.102-54.434 53.414 7.506 0.102 54.436c0.162 87.010-65.070 148.356-145.688 137.026zM425.624 797.484c-43.736-14.088-77.242-59.92-77.334-109.346l-0.102-54.434-53.312-7.506v54.434c0.162 87.012 65.66 166.732 146.26 178.058 15.204 2.136 29.86 1.682 43.632-1.036-22.482-15.404-42.62-35.572-59.144-60.17zM206.462 121.854v488l101-46v-515l-101 73z" />
<glyph unicode="&#xe615;" d="M159.584 525.5v-470h705.5v470h-705.5zM229.584 196.5v259h565.5v-259h-565.5zM264.626 369.232l54.75 54.75c14.074 14.064 35.228-7.198 21.214-21.214l-54.75-54.75c-14.068-14.060-35.228 7.194-21.214 21.214zM268.502 297.108l123 123c14.074 14.064 35.228-7.198 21.214-21.214l-123-123c-14.070-14.062-35.23 7.194-21.214 21.214zM441.24 840.5l-35.596-170.664h-0.162v-34.68c0-36.628-29.694-66.322-66.322-66.322s-66.32 29.694-66.32 66.322v34.68l101.682 170.664h66.718zM336.464 840.5l-103.82-170.664v-34.68c0-36.628-29.694-66.322-66.322-66.322s-66.322 29.694-66.322 66.322v34.68l167.332 170.664h69.132zM924 669.836v-34.68c0-36.628-29.694-66.322-66.322-66.322s-66.322 29.694-66.322 66.322v34.68l-103.82 170.664h69.132l167.332-170.664zM578.16 669.836h0.162v-34.68c0-36.628-29.694-66.322-66.322-66.322s-66.322 29.694-66.322 66.322v34.68h0.162l33.458 170.664h65.406l33.456-170.664zM649.478 840.5l101.682-170.664v-34.68c0-36.628-29.692-66.322-66.32-66.322s-66.322 29.694-66.322 66.322v34.68h-0.162l-35.596 170.664h66.718z" />
<glyph unicode="&#xe616;" d="M596.582 358.618l6.122 3.562v-31.322l-6.122-3.564v31.324zM586.164 321.224l6.122 3.566v31.322l-6.226-3.624 0.104-31.264zM631.792 347.792l6.226 3.624v31.324l-6.226-3.626v-31.322zM713.114 535.552v-209.95l-173.958-101.282-218.606 127.3v209.952l174.278 100.62 218.286-126.64zM462.332 606.556l170.14-100.44 34.66 19.192-172.344 99.984-32.456-18.736zM522.156 426.812l-170.050 98.432v-155.268l170.050-98.834v155.67zM572.446 472.87l-167.972 100.284-35.578-20.542 169.766-98.452 33.784 18.71zM681.258 496.624l-30.624-16.956v-56.9l-0.204-0.116v-0.244l-59.938-33.086v0.202l-0.208-0.116v56.836l-36.196-20.046v-156.27l127.168 74.038v152.658zM611.234 335.822l6.128 3.57v31.322l-6.128-3.566v-31.326zM646.968 356.624l6.12 3.572v31.316l-6.122-3.562v-31.326zM621.48 341.79l6.122 3.562v31.324l-6.122-3.564v-31.322zM512.828 860c-112.43 0-222.32-45.052-296.66-118.066l-70.93 70.932-46.062-252.354 252.352 46.064-71.718 71.718c58.050 56.728 145.444 91.706 233.018 91.706 177.836 0 321.996-144.164 321.996-322s-144.16-322-321.996-322c-177.324 0-321.156 143.344-321.98 320.476l-89.586-16.922c9.652-218.978 190.21-393.554 411.566-393.554 227.542 0 411.996 184.458 411.996 412s-184.452 412-411.996 412z" />
<glyph unicode="&#xe617;" d="M512 775.038c88.866 0 172.36-34.136 235.106-96.128 62.482-61.732 96.894-143.736 96.894-230.908s-34.412-169.176-96.896-230.91c-62.744-61.988-146.24-96.128-235.104-96.128s-172.358 34.14-235.104 96.128c-62.484 61.734-96.896 143.738-96.896 230.91s34.412 169.176 96.896 230.906c62.746 61.992 146.24 96.13 235.104 96.13M512 855.038c-227.542 0-412-182.234-412-407.036 0-224.796 184.458-407.040 412-407.040 227.544 0 412 182.242 412 407.040 0 224.8-184.456 407.036-412 407.036v0zM413.088 245.678v394.656l321.838-197.332-321.838-197.324z" />
<glyph unicode="&#xe618;" d="M808.668 536.668h-589.334v-40h589.334v40zM397 461.832h-177.666v-40h177.666v40zM397 385.832h-177.666v-40h177.666v40zM808.668 461.832h-177.668v-40h177.668v40zM808.668 385.832h-177.668v-40h177.668v40zM808.668 309.832h-589.334v-40h589.334v40zM591.332 461.832h-156.664v-116h156.664v116zM864 712v-494h-704v494h704M924 772h-824v-648h824v648zM521.878 577.002l-20.95 88.266h22.96l10.934-61.16 12.246 61.16h22.378l10.84-60.028 11.316 60.028h21.95l-22.786-88.266h-22.714l-10.84 58.384-12.368-58.384h-22.966zM495.512 595h-35.454v18.478h31.742v17.872h-31.742v15.918h33.66v18h-55.242v-88.266h57.036v17.998zM643.628 593.72c-6.824 0-14.738 1.968-21.172 5.266l-1.124 0.576-4.458-18.098 0.672-0.372c4.684-2.588 14.48-5.374 24.93-5.374 26.434 0 35.812 14.95 35.812 27.75 0 12.376-7.324 20.85-23.042 26.662-11.52 4.37-15.352 6.604-15.352 11.224 0 4.446 4.532 7.318 11.542 7.318 6.176 0 12.102-1.344 17.614-3.996l1.078-0.52 4.898 17.722-0.782 0.354c-6.546 2.946-14.094 4.44-22.426 4.44-20.122 0-33.636-10.844-33.636-26.982 0-11.902 8.192-20.79 24.34-26.412 10.316-3.694 13.8-6.526 13.8-11.216 0.002-5.3-4.626-8.342-12.694-8.342zM370.074 637.36l31.434-60.358h22.066v88.266h-19.918v-54.104l-29.132 54.104h-24.368v-88.266h19.918v60.358z" />
<glyph unicode="&#xe619;" d="M896.45 171.514l-170.774 170.77c33.1 52.162 52.292 113.972 52.292 180.188 0 185.978-151.304 337.282-337.286 337.282-185.978 0-337.282-151.304-337.282-337.282s151.302-337.282 337.282-337.282c62.93 0 121.878 17.34 172.35 47.47l172.28-172.284c73.51-73.508 184.71 37.566 111.138 111.138zM207.984 522.472c0 128.312 104.384 232.704 232.7 232.704s232.706-104.39 232.706-232.704-104.39-232.704-232.706-232.704-232.7 104.392-232.7 232.704zM276.91 582.992c68.114 157.8 297.336 139.504 340.496-25.724-86.964 102.074-239.968 113.064-340.496 25.724z" />
<glyph unicode="&#xe61a;" d="M390.668 513.334h-100v125.332c0 122.044 99.29 221.334 221.332 221.334 122.044 0 221.334-99.29 221.334-221.334v-125.332h-100v125.332c0 66.904-54.43 121.334-121.334 121.334-66.902 0-121.332-54.43-121.332-121.334v-125.332zM808 453.334v-417.334h-592v417.334h592zM651.99 309.236l-41.486 41.458-129.106-129.104-55.918 55.938-41.468-41.476 97.39-97.416 170.588 170.6z" />
<glyph unicode="&#xe61b;" d="M512 860c-144.144 0-261-116.854-261-261s114.228-311.666 261-563c146.776 251.332 261 418.854 261 563 0 144.146-116.852 261-261 261zM512 511.734c-51.696 0-93.602 41.906-93.602 93.6s41.906 93.6 93.602 93.6 93.602-41.906 93.602-93.6-41.906-93.6-93.602-93.6z" />
<glyph unicode="&#xe61c;" d="M512.034 413.128l-410.34 340.058h821.808l-411.468-340.058zM511.966 302.204l-411.966 341.308v-500.698h824v499.88l-412.034-340.49z" />
<glyph unicode="&#xe61d;" d="M357.442 728h566.558v-80h-566.558v80zM357.442 488h566.558v-80h-566.558v80zM357.442 248h566.558v-80h-566.558v80zM180 768c-44.18 0-80-35.816-80-80 0-44.18 35.82-80 80-80 44.184 0 80 35.82 80 80 0 44.184-35.816 80-80 80zM180 528c-44.18 0-80-35.816-80-80 0-44.18 35.82-80 80-80 44.184 0 80 35.82 80 80 0 44.184-35.816 80-80 80zM180 288c-44.18 0-80-35.816-80-80 0-44.18 35.82-80 80-80 44.184 0 80 35.82 80 80 0 44.184-35.816 80-80 80z" />
<glyph unicode="&#xe61e;" d="M807.668 445.866h-477.334v-40h477.334v40zM452 371.030h-121.666v-40h121.666v40zM452 295.030h-121.666v-40h121.666v40zM807.668 371.030h-121.666v-40h121.666v40zM807.668 295.030h-121.666v-40h121.666v40zM646.334 371.030h-156.666v-116h156.666v116zM863 621.198v-421.282h-592v421.282h592M923 681.198h-712v-575.282h712v575.282zM576.88 486.202l-20.95 88.266h22.96l10.934-61.16 12.246 61.16h22.378l10.84-60.028 11.316 60.028h21.95l-22.786-88.266h-22.714l-10.84 58.382-12.368-58.382h-22.966zM550.514 504.198h-35.454v18.48h31.742v17.872h-31.742v15.918h33.66v18h-55.242v-88.266h57.036v17.996zM698.63 502.92c-6.824 0-14.738 1.968-21.172 5.266l-1.124 0.574-4.458-18.098 0.672-0.372c4.684-2.586 14.48-5.372 24.93-5.372 26.434 0 35.812 14.95 35.812 27.75 0 12.376-7.324 20.848-23.042 26.66-11.52 4.372-15.352 6.606-15.352 11.226 0 4.446 4.532 7.316 11.542 7.316 6.176 0 12.102-1.344 17.614-3.996l1.078-0.52 4.898 17.722-0.782 0.356c-6.546 2.946-14.094 4.438-22.426 4.438-20.122 0-33.636-10.844-33.636-26.98 0-11.902 8.192-20.79 24.34-26.414 10.316-3.692 13.8-6.524 13.8-11.214 0.002-5.304-4.626-8.342-12.694-8.342zM425.076 546.556l31.434-60.356h22.066v88.266h-19.918v-54.106l-29.132 54.106h-24.368v-88.266h19.918v60.356zM863 730.084h-702v-558.168h-60v618.168h762v-60z" />
<glyph unicode="&#xe61f;" d="M489.116 561.014l135.654-135.652-146.34-269.062c0 0-181.61-46.8-295.388-120.054l-28.37 28.364 136.226 136.21c11.95 11.964 27.452 19.546 44.22 21.614 9.284 1.164 18.256 5.242 25.392 12.41 17.076 17.094 17.092 44.8-0.004 61.902-17.098 17.086-44.814 17.086-61.918 0.004-7.146-7.144-11.246-16.122-12.398-25.386-2.056-16.742-9.668-32.3-21.6-44.234l-136.208-136.21-28.382 28.372c74.056 114.992 120.042 295.386 120.042 295.386l269.074 146.336zM631.792 859.756c-45.568-88.286-106.028-200-106.028-200l197.744-197.738c0 0 111.818 60.172 200.492 105.532l-292.208 292.206z" />
<glyph unicode="&#xe620;" d="M783.74 92.124l-117.186 230.656c-0.26-0.13-65.72-32.946-68.74-34.308-74.538-36.888-226.326 265.45-153.428 305.294l69.33 34.812-116.246 231.422c-0.078-0.038-68.984-34.694-70.138-35.284-47.888-25.442-177.864-85.624 16.468-472.626 195.994-390.32 317.584-319.334 369.694-295.040 4.020 1.868 69.994 34.946 70.246 35.074z" />
<glyph unicode="&#xe621;" d="M658.744 210.744l-210.744 210.746v282.51h128v-229.49l173.256-173.254zM512 960c-282.77 0-512-229.23-512-512s229.23-512 512-512 512 229.23 512 512-229.23 512-512 512zM512 64c-212.078 0-384 171.922-384 384s171.922 384 384 384c212.078 0 384-171.922 384-384 0-212.078-171.922-384-384-384z" />
<glyph unicode="&#xe622;" d="M64 768h896v-192h-896zM64 512h896v-192h-896zM64 256h896v-192h-896z" />
<glyph unicode="&#xe623;" d="M206.016 733.696h636v-64h-636v64zM838.144 180.032l-261.536 316.32-51.584 60.64-53.632-60.64-261.536-316.288 53.632-44.352 260.512 315.072 260.544-315.104z" />
</font>
</defs>
</svg>
