<?xml version="1.0" standalone="no"?>
<!DOCTYPE svg PUBLIC "-//W3C//DTD SVG 1.1//EN" "http://www.w3.org/Graphics/SVG/1.1/DTD/svg11.dtd" >
<svg xmlns="http://www.w3.org/2000/svg">
<metadata></metadata>
<defs>
<font id="linkeoregular" horiz-adv-x="1014" >
<font-face units-per-em="2048" ascent="1638" descent="-410" />
<missing-glyph horiz-adv-x="322" />
<glyph horiz-adv-x="2048" />
<glyph horiz-adv-x="2048" />
<glyph unicode="&#xd;" horiz-adv-x="508" />
<glyph unicode=" "  horiz-adv-x="322" />
<glyph unicode="&#x09;" horiz-adv-x="322" />
<glyph unicode="&#xa0;" horiz-adv-x="322" />
<glyph unicode="!" horiz-adv-x="672" />
<glyph unicode="&#x22;" horiz-adv-x="672" />
<glyph unicode="#" horiz-adv-x="1336" />
<glyph unicode="$" />
<glyph unicode="%" horiz-adv-x="1610" />
<glyph unicode="&#x26;" horiz-adv-x="1683" />
<glyph unicode="'" horiz-adv-x="346" />
<glyph unicode="(" horiz-adv-x="758" />
<glyph unicode=")" horiz-adv-x="758" />
<glyph unicode="*" horiz-adv-x="1024" />
<glyph unicode="+" />
<glyph unicode="," horiz-adv-x="557" />
<glyph unicode="-" horiz-adv-x="670" />
<glyph unicode="." horiz-adv-x="557" />
<glyph unicode="/" horiz-adv-x="569" />
<glyph unicode="0" />
<glyph unicode="1" horiz-adv-x="6400" d="M50 502q0 56 15 105q16 49 47 86q30 37 75 59q44 21 101 21q66 0 122 -34q55 -33 77 -93h2v114h41v-521q0 -31 -6 -66q-5 -35 -27 -76q-22 -40 -72 -69q-50 -28 -133 -28q-95 0 -153 41q-58 40 -62 130h40q7 -69 55 -102q48 -34 121 -34q68 0 108 23q41 24 60 56 q18 33 23 62q5 28 5 53v127h-2q-59 -126 -199 -126q-117 0 -178 76q-60 75 -60 196zM91 502q0 -101 52 -169q52 -67 145 -67q95 0 148 68q52 69 52 168q0 47 -12 90q-13 42 -37 74q-55 72 -151 72q-48 0 -86 -19q-37 -20 -62 -53q-25 -34 -37 -76q-12 -43 -12 -88zM650 210 v550h40v-122h4q16 54 74 90t137 36v-41q-3 0 -10 1h-11q-33 0 -68 -13t-63 -42q-33 -33 -46 -65q-13 -33 -17 -93v-301h-40zM922 485q0 59 16 112q17 52 50 92q33 39 80 62q48 22 106 22q59 0 107 -22q48 -23 80 -62q33 -40 50 -92q16 -53 16 -112t-16 -111q-17 -51 -50 -92 q-33 -40 -81 -62q-47 -23 -106 -23q-58 0 -106 23q-48 22 -80 62q-32 39 -49 92q-17 52 -17 111zM962 485q0 -50 14 -96q14 -45 42 -81q27 -35 66 -55q40 -21 90 -21q51 0 90 21q40 20 67 55q28 36 42 81q14 46 14 96q0 51 -14 96q-14 46 -42 81q-27 35 -67 56 q-39 20 -90 20q-50 0 -90 -20q-39 -21 -66 -56q-28 -35 -42 -81q-14 -45 -14 -96zM1522 420v340h41v-348q0 -30 4 -57q5 -28 20 -57q15 -28 47 -47q33 -19 86 -19q91 0 144 64q54 64 54 167v297h40v-550h-40v118h-2q-21 -60 -76 -96q-55 -35 -122 -35t-108 24q-41 23 -60 58 t-23 69q-5 33 -5 72zM2088 13v747h41v-126h2q7 22 23 47q15 24 40 45q25 20 59 34q35 13 78 13q62 0 109 -22q46 -23 77 -63t46 -92t15 -112q0 -131 -62 -209q-63 -78 -185 -78q-72 0 -124 32q-53 31 -76 95h-2v-311h-41zM2130 484q0 -52 10 -97q10 -44 33 -79t63 -55 q39 -21 95 -21q53 0 92 20t64 54q26 35 38 80q13 46 13 98q0 48 -12 94q-12 45 -37 82q-25 36 -65 57q-39 21 -93 21q-53 0 -92 -20q-39 -21 -63 -56t-35 -81t-11 -97zM2649 476q0 58 16 112q15 53 46 95q30 42 76 66t105 24q60 0 106 -21t77 -59q30 -37 45 -87 q15 -49 15 -106q0 -3 -1 -9v-11h-444q0 -105 53 -176q53 -72 149 -72q78 0 131 44q52 44 66 120h41q-16 -96 -78 -148q-61 -51 -160 -51q-114 0 -179 79q-64 78 -64 200zM2690 515h404q-2 44 -15 84q-14 40 -40 71t-63 50q-38 18 -84 18q-44 0 -80 -19q-37 -19 -63 -51 t-41 -71q-15 -40 -18 -82zM3489 313v634q0 56 46 56q20 0 32 -14t12 -37v-632q0 -37 20 -54q22 -16 22 -38q0 -18 -13 -31t-32 -13q-37 0 -62 36q-25 37 -25 93zM3750 953q0 23 15 38q16 14 38 14t36 -15t14 -38q0 -21 -15 -36t-36 -15q-22 0 -37 15t-15 37zM3755 242v468 q0 21 13 35q13 15 33 15t33 -15q13 -16 13 -38v-455q0 -63 -49 -63q-43 0 -43 53zM4002 249q0 -57 47 -57q48 0 48 53v261q0 77 43 125t114 49l1 -1q71 0 114 -48q44 -48 44 -125v-261q0 -53 47 -53t47 57v264q0 113 -71 188q-72 76 -180 76h-1h-2q-108 0 -180 -76 q-71 -75 -71 -188v-264zM4653 254v703q0 22 13 37q14 15 35 15q44 0 44 -57v-473q1 -8 5 -10q2 -1 12 8l301 262l4 4q23 19 42 19q18 0 31 -13q13 -14 13 -32q0 -20 -21 -39l-6 -3l-127 -114l-1 -2l-4 -3q0 -1 -1 -2v-2q0 -2 1 -5l3 -3l1 -4l136 -270q0 -2 2 -4q2 -3 3 -4 q7 -16 7 -24q0 -20 -14 -33q-14 -12 -35 -12q-16 0 -24 5q-9 6 -18 25l-1 3l-132 253l-1 3l-1 2q0 1 -4 1q-6 0 -12 -6q0 -1 -1 -1l-151 -134l-2 -2q-4 -4 -4 -9v-83q-1 -59 -48 -59q-25 0 -35 14t-10 49zM5218 477q0 -126 71 -205q72 -79 186 -79q97 0 173 63q22 18 22 41 q0 20 -12 32q-11 12 -31 12q-18 0 -34 -13q-53 -44 -117 -44q-62 0 -111 45q-50 45 -49 101q0 6 7 7h13l326 1q42 0 57 17t15 66q0 108 -75 183t-182 75q-77 0 -144 -43t-92 -108q-23 -60 -23 -151zM5314 538q0 58 50 104t113 46q62 0 111 -46q49 -45 49 -102q0 -6 -4 -8 q-4 -1 -19 -1l-278 -1h-12q-10 0 -10 8zM5819 487q0 -130 71 -211t185 -82h2q115 1 186 82t71 211v10q-3 127 -75 208q-71 81 -181 81h-4q-109 0 -181 -81t-74 -208v-10zM5912 496v11q2 89 44 137q42 49 117 49h1l1 -1h2l1 1h1q76 0 117 -49q42 -48 44 -137v-11 q0 -52 -7 -88q-12 -52 -57 -87q-44 -34 -99 -34h-2q-55 0 -99 34q-45 35 -56 87q-8 38 -8 88z" />
<glyph unicode="2" horiz-adv-x="6402" d="M53 313v634q0 56 46 56q20 0 32 -14t12 -37v-632q0 -37 20 -54q22 -16 22 -38q0 -18 -13 -31t-32 -13q-37 0 -62 36q-25 37 -25 93zM314 953q0 23 15 38q16 14 38 14t36 -15t14 -38q0 -21 -15 -36t-36 -15q-22 0 -37 15t-15 37zM319 242v468q0 21 13 35q13 15 33 15 t33 -15q13 -16 13 -38v-455q0 -63 -49 -63q-43 0 -43 53zM566 249q0 -57 47 -57q48 0 48 53v261q0 77 43 125t114 49l1 -1q71 0 114 -48q44 -48 44 -125v-261q0 -53 47 -53t47 57v264q0 113 -71 188q-72 76 -180 76h-1h-2q-108 0 -180 -76q-71 -75 -71 -188v-264zM1217 254 v703q0 22 13 37q14 15 35 15q44 0 44 -57v-473q1 -8 5 -10q2 -1 12 8l301 262l4 4q23 19 42 19q18 0 31 -13q13 -14 13 -32q0 -20 -21 -39l-6 -3l-127 -114l-1 -2l-4 -3q0 -1 -1 -2v-2q0 -2 1 -5l3 -3l1 -4l136 -270q0 -2 2 -4q2 -3 3 -4q7 -16 7 -24q0 -20 -14 -33 q-14 -12 -35 -12q-16 0 -24 5q-9 6 -18 25l-1 3l-132 253l-1 3l-1 2q0 1 -4 1q-6 0 -12 -6q0 -1 -1 -1l-151 -134l-2 -2q-4 -4 -4 -9v-83q-1 -59 -48 -59q-25 0 -35 14t-10 49zM1782 477q0 -126 71 -205q72 -79 186 -79q97 0 173 63q22 18 22 41q0 20 -12 32q-11 12 -31 12 q-18 0 -34 -13q-53 -44 -117 -44q-62 0 -111 45q-50 45 -49 101q0 6 7 7h13l326 1q42 0 57 17t15 66q0 108 -75 183t-182 75q-77 0 -144 -43t-92 -108q-23 -60 -23 -151zM1878 538q0 58 50 104t113 46q62 0 111 -46q49 -45 49 -102q0 -6 -4 -8q-4 -1 -19 -1l-278 -1h-12 q-10 0 -10 8zM2383 487q0 -130 71 -211t185 -82h2q115 1 186 82t71 211v10q-3 127 -75 208q-71 81 -181 81h-4q-109 0 -181 -81t-74 -208v-10zM2476 496v11q2 89 44 137q42 49 117 49h1l1 -1h2l1 1h1q76 0 117 -49q42 -48 44 -137v-11q0 -52 -7 -88q-12 -52 -57 -87 q-44 -34 -99 -34h-2q-55 0 -99 34q-45 35 -56 87q-8 38 -8 88zM3244 502q0 56 15 105q16 49 47 86q30 37 75 59q44 21 101 21q66 0 122 -34q55 -33 77 -93h2v114h41v-521q0 -31 -6 -66q-5 -35 -27 -76q-22 -40 -72 -69q-50 -28 -133 -28q-95 0 -153 41q-58 40 -62 130h40 q7 -69 55 -102q48 -34 121 -34q68 0 108 23q41 24 60 56q18 33 23 62q5 28 5 53v127h-2q-59 -126 -199 -126q-117 0 -178 76q-60 75 -60 196zM3285 502q0 -101 52 -169q52 -67 145 -67q95 0 148 68q52 69 52 168q0 47 -12 90q-13 42 -37 74q-55 72 -151 72q-48 0 -86 -19 q-37 -20 -62 -53q-25 -34 -37 -76q-12 -43 -12 -88zM3844 210v550h40v-122h4q16 54 74 90t137 36v-41q-3 0 -10 1h-11q-33 0 -68 -13t-63 -42q-33 -33 -46 -65q-13 -33 -17 -93v-301h-40zM4116 485q0 59 16 112q17 52 50 92q33 39 80 62q48 22 106 22q59 0 107 -22 q48 -23 80 -62q33 -40 50 -92q16 -53 16 -112t-16 -111q-17 -51 -50 -92q-33 -40 -81 -62q-47 -23 -106 -23q-58 0 -106 23q-48 22 -80 62q-32 39 -49 92q-17 52 -17 111zM4156 485q0 -50 14 -96q14 -45 42 -81q27 -35 66 -55q40 -21 90 -21q51 0 90 21q40 20 67 55 q28 36 42 81q14 46 14 96q0 51 -14 96q-14 46 -42 81q-27 35 -67 56q-39 20 -90 20q-50 0 -90 -20q-39 -21 -66 -56q-28 -35 -42 -81q-14 -45 -14 -96zM4716 420v340h41v-348q0 -30 4 -57q5 -28 20 -57q15 -28 47 -47q33 -19 86 -19q91 0 144 64q54 64 54 167v297h40v-550 h-40v118h-2q-21 -60 -76 -96q-55 -35 -122 -35t-108 24q-41 23 -60 58t-23 69q-5 33 -5 72zM5282 13v747h41v-126h2q7 22 23 47q15 24 40 45q25 20 59 34q35 13 78 13q62 0 109 -22q46 -23 77 -63t46 -92t15 -112q0 -131 -62 -209q-63 -78 -185 -78q-72 0 -124 32 q-53 31 -76 95h-2v-311h-41zM5324 484q0 -52 10 -97q10 -44 33 -79t63 -55q39 -21 95 -21q53 0 92 20t64 54q26 35 38 80q13 46 13 98q0 48 -12 94q-12 45 -37 82q-25 36 -65 57q-39 21 -93 21q-53 0 -92 -20q-39 -21 -63 -56t-35 -81t-11 -97zM5843 476q0 58 16 112 q15 53 46 95q30 42 76 66t105 24q60 0 106 -21t77 -59q30 -37 45 -87q15 -49 15 -106q0 -3 -1 -9v-11h-444q0 -105 53 -176q53 -72 149 -72q78 0 131 44q52 44 66 120h41q-16 -96 -78 -148q-61 -51 -160 -51q-114 0 -179 79q-64 78 -64 200zM5884 515h404q-2 44 -15 84 q-14 40 -40 71t-63 50q-38 18 -84 18q-44 0 -80 -19q-37 -19 -63 -51t-41 -71q-15 -40 -18 -82z" />
<glyph unicode="3" />
<glyph unicode="4" />
<glyph unicode="5" />
<glyph unicode="6" />
<glyph unicode="7" />
<glyph unicode="8" />
<glyph unicode="9" />
<glyph unicode=":" horiz-adv-x="557" />
<glyph unicode=";" horiz-adv-x="557" />
<glyph unicode="&#x3c;" />
<glyph unicode="=" />
<glyph unicode="&#x3e;" />
<glyph unicode="?" horiz-adv-x="748" />
<glyph unicode="@" horiz-adv-x="2019" />
<glyph unicode="A" horiz-adv-x="1540" />
<glyph unicode="B" horiz-adv-x="1219" />
<glyph unicode="C" horiz-adv-x="1399" />
<glyph unicode="D" horiz-adv-x="1518" />
<glyph unicode="E" horiz-adv-x="617" d="M48 477q0 -126 71 -205q72 -79 186 -79q97 0 173 63q22 18 22 41q0 20 -12 32q-11 12 -31 12q-18 0 -34 -13q-53 -44 -117 -44q-62 0 -111 45q-49 44 -49 99q0 8 7 9h13l326 1q42 0 57 17t15 66q0 108 -75 183t-182 75q-77 0 -144 -43t-92 -108q-23 -60 -23 -151z M144 538q0 58 50 104t113 46q62 0 111 -46q49 -45 49 -102q0 -6 -4 -8q-4 -1 -19 -1l-278 -1h-12q-10 0 -10 8z" />
<glyph unicode="F" horiz-adv-x="1079" />
<glyph unicode="G" horiz-adv-x="556" />
<glyph unicode="H" horiz-adv-x="1579" />
<glyph unicode="I" horiz-adv-x="181" d="M40 953q0 23 15 38q16 14 38 14t36 -15t14 -38q0 -21 -15 -36t-36 -15q-22 0 -37 15t-15 37zM45 242v468q0 21 13 35q13 15 33 15t33 -15q13 -16 13 -38v-455q0 -63 -49 -63q-43 0 -43 53z" />
<glyph unicode="J" horiz-adv-x="657" />
<glyph unicode="K" horiz-adv-x="600" d="M47 254v703q0 22 13 37q14 15 35 15q44 0 44 -57v-473q1 -8 5 -10q2 -1 12 8l301 262l4 4q23 19 42 19q18 0 31 -13q13 -14 13 -32q0 -20 -21 -39l-6 -3l-127 -114l-1 -2l-4 -3q0 -1 -1 -2v-2q0 -2 1 -5l3 -3l1 -4l136 -270q0 -2 2 -4q2 -3 3 -4q7 -16 7 -24 q0 -20 -14 -33q-14 -12 -35 -12q-16 0 -24 5q-9 6 -18 25l-1 3l-132 253l-1 3l-1 2q0 1 -4 1q-6 0 -12 -6q0 -1 -1 -1l-151 -134l-2 -2q-4 -4 -4 -9v-83q-1 -59 -48 -59q-25 0 -35 14t-10 49z" />
<glyph unicode="L" horiz-adv-x="216" d="M39 313v634q0 56 46 56q20 0 32 -14t12 -37v-632q0 -37 20 -54q22 -16 22 -38q0 -18 -13 -31t-32 -13q-37 0 -62 36q-25 37 -25 93z" />
<glyph unicode="M" horiz-adv-x="1798" />
<glyph unicode="N" horiz-adv-x="595" d="M41 249q0 -57 47 -57q48 0 48 53v261q0 77 43 125t114 49l1 -1q71 0 114 -48q44 -48 44 -125v-261q0 -53 47 -53t47 57v264q0 113 -71 188q-72 76 -180 76h-1h-2q-108 0 -180 -76q-71 -75 -71 -188v-264z" />
<glyph unicode="O" horiz-adv-x="626" d="M54 487q0 -130 71 -211t185 -82h2q115 1 186 82t71 211v10q-3 127 -75 208q-71 81 -181 81h-4q-109 0 -181 -81t-74 -208v-10zM147 496v11q2 89 44 137q42 49 117 49h1l1 -1h2l1 1h1q76 0 117 -49q42 -48 44 -137v-11q0 -52 -7 -88q-12 -52 -57 -87q-44 -34 -99 -34h-2 q-55 0 -99 34q-45 35 -56 87q-8 38 -8 88z" />
<glyph unicode="P" horiz-adv-x="564" />
<glyph unicode="Q" horiz-adv-x="1614" />
<glyph unicode="R" horiz-adv-x="335" />
<glyph unicode="S" horiz-adv-x="1085" />
<glyph unicode="T" horiz-adv-x="1350" />
<glyph unicode="U" horiz-adv-x="551" />
<glyph unicode="V" horiz-adv-x="1456" />
<glyph unicode="W" horiz-adv-x="2030" />
<glyph unicode="X" horiz-adv-x="1350" />
<glyph unicode="Y" horiz-adv-x="1233" />
<glyph unicode="Z" horiz-adv-x="1124" />
<glyph unicode="[" horiz-adv-x="758" />
<glyph unicode="\" horiz-adv-x="569" />
<glyph unicode="]" horiz-adv-x="758" />
<glyph unicode="^" />
<glyph unicode="_" horiz-adv-x="1024" />
<glyph unicode="`" horiz-adv-x="1024" />
<glyph unicode="a" horiz-adv-x="922" />
<glyph unicode="b" horiz-adv-x="995" />
<glyph unicode="c" horiz-adv-x="905" />
<glyph unicode="d" horiz-adv-x="1040" />
<glyph unicode="e" horiz-adv-x="582" d="M49 476q0 58 16 112q15 53 46 95q30 42 76 66t105 24q60 0 106 -21t77 -59q30 -37 45 -87q15 -49 15 -106q0 -3 -1 -9v-11h-444q0 -105 53 -176q53 -72 149 -72q78 0 131 44q52 44 66 120h41q-16 -96 -78 -148q-61 -51 -160 -51q-114 0 -179 79q-64 78 -64 200zM90 515 h404q-2 44 -15 84q-14 40 -40 71t-63 50q-38 18 -84 18q-44 0 -80 -19q-37 -19 -63 -51t-41 -71q-15 -40 -18 -82z" />
<glyph unicode="f" horiz-adv-x="559" />
<glyph unicode="g" horiz-adv-x="587" d="M44 502q0 56 15 105q16 49 47 86q30 37 75 59q44 21 101 21q66 0 122 -34q55 -33 77 -93h2v114h41v-521q0 -31 -6 -66q-5 -35 -27 -76q-22 -40 -72 -69q-50 -28 -133 -28q-95 0 -153 41q-58 40 -62 130h40q7 -69 55 -102q48 -34 121 -34q68 0 108 23q41 24 60 56 q18 33 23 62q5 28 5 53v127h-2q-59 -126 -199 -126q-117 0 -178 76q-60 75 -60 196zM85 502q0 -101 52 -169q52 -67 145 -67q95 0 148 68q52 69 52 168q0 47 -12 90q-13 42 -37 74q-55 72 -151 72q-48 0 -86 -19q-37 -20 -62 -53q-25 -34 -37 -76q-12 -43 -12 -88z" />
<glyph unicode="h" horiz-adv-x="1104" />
<glyph unicode="i" horiz-adv-x="238" />
<glyph unicode="j" horiz-adv-x="510" />
<glyph unicode="k" horiz-adv-x="587" />
<glyph unicode="l" horiz-adv-x="238" />
<glyph unicode="m" horiz-adv-x="1569" />
<glyph unicode="n" horiz-adv-x="657" />
<glyph unicode="o" horiz-adv-x="613" d="M52 485q0 59 16 112q17 52 50 92q33 39 80 62q48 22 106 22q59 0 107 -22q48 -23 80 -62q33 -40 50 -92q16 -53 16 -112t-16 -111q-17 -51 -50 -92q-33 -40 -81 -62q-47 -23 -106 -23q-58 0 -106 23q-48 22 -80 62q-32 39 -49 92q-17 52 -17 111zM92 485q0 -50 14 -96 q14 -45 42 -81q27 -35 66 -55q40 -21 90 -21q51 0 90 21q40 20 67 55q28 36 42 81q14 46 14 96q0 51 -14 96q-14 46 -42 81q-27 35 -67 56q-39 20 -90 20q-50 0 -90 -20q-39 -21 -66 -56q-28 -35 -42 -81q-14 -45 -14 -96z" />
<glyph unicode="p" horiz-adv-x="582" d="M48 13v747h41v-126h2q7 22 23 47q15 24 40 45q25 20 59 34q35 13 78 13q62 0 109 -22q46 -23 77 -63t46 -92t15 -112q0 -131 -62 -209q-63 -78 -185 -78q-72 0 -124 32q-53 31 -76 95h-2v-311h-41zM90 484q0 -52 10 -97q10 -44 33 -79t63 -55q39 -21 95 -21q53 0 92 20 t64 54q26 35 38 80q13 46 13 98q0 48 -12 94q-12 45 -37 82q-25 36 -65 57q-39 21 -93 21q-53 0 -92 -20q-39 -21 -63 -56t-35 -81t-11 -97z" />
<glyph unicode="q" horiz-adv-x="1024" />
<glyph unicode="r" horiz-adv-x="357" d="M50 210v550h40v-122h4q16 54 74 90t137 36v-41q-3 0 -10 1h-11q-33 0 -68 -13t-63 -42q-33 -33 -46 -65q-13 -33 -17 -93v-301h-40z" />
<glyph unicode="s" horiz-adv-x="702" />
<glyph unicode="t" horiz-adv-x="674" />
<glyph unicode="u" horiz-adv-x="551" d="M52 420v340h41v-348q0 -30 4 -57q5 -28 20 -57q15 -28 47 -47q33 -19 86 -19q91 0 144 64q54 64 54 167v297h40v-550h-40v118h-2q-21 -60 -76 -96q-55 -35 -122 -35t-108 24q-41 23 -60 58t-23 69q-5 33 -5 72z" />
<glyph unicode="v" horiz-adv-x="993" />
<glyph unicode="w" horiz-adv-x="1415" />
<glyph unicode="x" horiz-adv-x="1010" />
<glyph unicode="y" horiz-adv-x="868" />
<glyph unicode="z" horiz-adv-x="727" />
<glyph unicode="{" />
<glyph unicode="|" />
<glyph unicode="}" />
<glyph unicode="~" />
<glyph unicode="&#xa1;" horiz-adv-x="672" />
<glyph unicode="&#xa2;" horiz-adv-x="1139" />
<glyph unicode="&#xa3;" />
<glyph unicode="&#xa4;" />
<glyph unicode="&#xa5;" horiz-adv-x="1262" />
<glyph unicode="&#xa6;" />
<glyph unicode="&#xa7;" />
<glyph unicode="&#xa8;" horiz-adv-x="1024" />
<glyph unicode="&#xa9;" horiz-adv-x="1674" />
<glyph unicode="&#xaa;" horiz-adv-x="648" />
<glyph unicode="&#xab;" horiz-adv-x="944" />
<glyph unicode="&#xac;" />
<glyph unicode="&#xad;" horiz-adv-x="670" />
<glyph unicode="&#xae;" horiz-adv-x="1674" />
<glyph unicode="&#xaf;" horiz-adv-x="670" />
<glyph unicode="&#xb0;" horiz-adv-x="674" />
<glyph unicode="&#xb1;" />
<glyph unicode="&#xb2;" />
<glyph unicode="&#xb3;" />
<glyph unicode="&#xb4;" horiz-adv-x="1024" />
<glyph unicode="&#xb5;" horiz-adv-x="1180" />
<glyph unicode="&#xb6;" horiz-adv-x="1024" />
<glyph unicode="&#xb7;" horiz-adv-x="508" />
<glyph unicode="&#xb8;" horiz-adv-x="1024" />
<glyph unicode="&#xb9;" />
<glyph unicode="&#xba;" horiz-adv-x="718" />
<glyph unicode="&#xbb;" horiz-adv-x="944" />
<glyph unicode="&#xbc;" horiz-adv-x="1708" />
<glyph unicode="&#xbd;" horiz-adv-x="1964" />
<glyph unicode="&#xbe;" horiz-adv-x="1708" />
<glyph unicode="&#xbf;" horiz-adv-x="748" />
<glyph unicode="&#xc0;" horiz-adv-x="1540" />
<glyph unicode="&#xc1;" horiz-adv-x="1540" />
<glyph unicode="&#xc2;" horiz-adv-x="1540" />
<glyph unicode="&#xc3;" horiz-adv-x="1540" />
<glyph unicode="&#xc4;" horiz-adv-x="1540" />
<glyph unicode="&#xc5;" horiz-adv-x="1540" />
<glyph unicode="&#xc6;" horiz-adv-x="2118" />
<glyph unicode="&#xc7;" horiz-adv-x="1399" />
<glyph unicode="&#xc8;" horiz-adv-x="1151" />
<glyph unicode="&#xc9;" horiz-adv-x="1151" />
<glyph unicode="&#xca;" horiz-adv-x="1151" />
<glyph unicode="&#xcb;" horiz-adv-x="1151" />
<glyph unicode="&#xcc;" horiz-adv-x="657" />
<glyph unicode="&#xcd;" horiz-adv-x="657" />
<glyph unicode="&#xce;" horiz-adv-x="657" />
<glyph unicode="&#xcf;" horiz-adv-x="657" />
<glyph unicode="&#xd0;" horiz-adv-x="1518" />
<glyph unicode="&#xd1;" horiz-adv-x="1554" />
<glyph unicode="&#xd2;" horiz-adv-x="1614" />
<glyph unicode="&#xd3;" horiz-adv-x="1614" />
<glyph unicode="&#xd4;" horiz-adv-x="1614" />
<glyph unicode="&#xd5;" horiz-adv-x="1614" />
<glyph unicode="&#xd6;" horiz-adv-x="1614" />
<glyph unicode="&#xd7;" />
<glyph unicode="&#xd8;" horiz-adv-x="1614" />
<glyph unicode="&#xd9;" horiz-adv-x="1501" />
<glyph unicode="&#xda;" horiz-adv-x="1501" />
<glyph unicode="&#xdb;" horiz-adv-x="1501" />
<glyph unicode="&#xdc;" horiz-adv-x="1501" />
<glyph unicode="&#xdd;" horiz-adv-x="1233" />
<glyph unicode="&#xde;" horiz-adv-x="1120" />
<glyph unicode="&#xdf;" horiz-adv-x="1251" />
<glyph unicode="&#xe0;" horiz-adv-x="922" />
<glyph unicode="&#xe1;" horiz-adv-x="922" />
<glyph unicode="&#xe2;" horiz-adv-x="922" />
<glyph unicode="&#xe3;" horiz-adv-x="922" />
<glyph unicode="&#xe4;" horiz-adv-x="922" />
<glyph unicode="&#xe5;" horiz-adv-x="922" />
<glyph unicode="&#xe6;" horiz-adv-x="1454" />
<glyph unicode="&#xe7;" horiz-adv-x="905" />
<glyph unicode="&#xe8;" horiz-adv-x="909" />
<glyph unicode="&#xe9;" horiz-adv-x="909" />
<glyph unicode="&#xea;" horiz-adv-x="909" />
<glyph unicode="&#xeb;" horiz-adv-x="909" />
<glyph unicode="&#xec;" horiz-adv-x="514" />
<glyph unicode="&#xed;" horiz-adv-x="514" />
<glyph unicode="&#xee;" horiz-adv-x="514" />
<glyph unicode="&#xef;" horiz-adv-x="514" />
<glyph unicode="&#xf0;" horiz-adv-x="1139" />
<glyph unicode="&#xf1;" horiz-adv-x="1108" />
<glyph unicode="&#xf2;" horiz-adv-x="1010" />
<glyph unicode="&#xf3;" horiz-adv-x="1010" />
<glyph unicode="&#xf4;" horiz-adv-x="1010" />
<glyph unicode="&#xf5;" horiz-adv-x="1010" />
<glyph unicode="&#xf6;" horiz-adv-x="1010" />
<glyph unicode="&#xf7;" />
<glyph unicode="&#xf8;" horiz-adv-x="1010" />
<glyph unicode="&#xf9;" horiz-adv-x="1059" />
<glyph unicode="&#xfa;" horiz-adv-x="1059" />
<glyph unicode="&#xfb;" horiz-adv-x="1059" />
<glyph unicode="&#xfc;" horiz-adv-x="1059" />
<glyph unicode="&#xfd;" horiz-adv-x="868" />
<glyph unicode="&#xfe;" horiz-adv-x="1010" />
<glyph unicode="&#xff;" horiz-adv-x="868" />
<glyph unicode="&#x2c6;" horiz-adv-x="1024" />
<glyph unicode="&#x2dc;" horiz-adv-x="1024" />
<glyph unicode="&#x2000;" horiz-adv-x="682" />
<glyph unicode="&#x2001;" horiz-adv-x="1365" />
<glyph unicode="&#x2002;" horiz-adv-x="682" />
<glyph unicode="&#x2003;" horiz-adv-x="1365" />
<glyph unicode="&#x2004;" horiz-adv-x="455" />
<glyph unicode="&#x2005;" horiz-adv-x="341" />
<glyph unicode="&#x2006;" horiz-adv-x="227" />
<glyph unicode="&#x2007;" horiz-adv-x="227" />
<glyph unicode="&#x2008;" horiz-adv-x="170" />
<glyph unicode="&#x2009;" horiz-adv-x="273" />
<glyph unicode="&#x200a;" horiz-adv-x="75" />
<glyph unicode="&#x2010;" horiz-adv-x="670" />
<glyph unicode="&#x2011;" horiz-adv-x="670" />
<glyph unicode="&#x2012;" horiz-adv-x="670" />
<glyph unicode="&#x2013;" horiz-adv-x="1108" />
<glyph unicode="&#x2014;" horiz-adv-x="2048" />
<glyph unicode="&#x2018;" horiz-adv-x="557" />
<glyph unicode="&#x2019;" horiz-adv-x="557" />
<glyph unicode="&#x201a;" horiz-adv-x="557" />
<glyph unicode="&#x201c;" horiz-adv-x="910" />
<glyph unicode="&#x201d;" horiz-adv-x="910" />
<glyph unicode="&#x201e;" horiz-adv-x="910" />
<glyph unicode="&#x2022;" horiz-adv-x="1024" />
<glyph unicode="&#x2026;" horiz-adv-x="2048" />
<glyph unicode="&#x202f;" horiz-adv-x="273" />
<glyph unicode="&#x2039;" horiz-adv-x="631" />
<glyph unicode="&#x203a;" horiz-adv-x="631" />
<glyph unicode="&#x205f;" horiz-adv-x="341" />
<glyph unicode="&#x20ac;" />
<glyph unicode="&#x2122;" horiz-adv-x="1497" />
<glyph unicode="&#xe000;" horiz-adv-x="500" d="M0 0z" />
</font>
</defs>
</svg>
